(2016) DVDRip Chasing Great | [request_ebook]DATABASE SYSTEMS DESIGN IMPLEMENTATION & MANAGEMENT 7/E | Chapter 683
stuffalansimpsonsays.com - The Largest Bittorent System Login   |    Register
Latest Articles
Most searched
Hot torrents
Movie Torrents
View Torrent Info: Overboard (2018) [720p] [YTS] [YIFY]
View Torrent Info: How It Ends (2018) [720p] [YTS] [YIFY]
View Torrent Info: Furious (2017) [720p] [YTS] [YIFY]
View Torrent Info: Siberia (2018) [720p] [YTS] [YIFY]
View Torrent Info: Battalion (2018) [720p] [YTS] [YIFY]
View Torrent Info: Relentless (2018) [720p] [YTS] [YIFY]
View Torrent Info: Sara's Notebook (2018) [720p] [YTS] [YIFY]
View Torrent Info: The Devil's Doorway (2018) [720p] [YTS] [YIFY]
View Torrent Info: The Honey Killer (2018) [720p] [YTS] [YIFY]
View Torrent Info: 7 Splinters in Time (2018) [720p] [YTS] [YIFY]
Hot torrents
TV Torrents
View Torrent Info: The.Originals.S05E10.HDTV.x264-SVA[eztv]
View Torrent Info: The.100.S05E10.HDTV.x264-SVA[eztv]
View Torrent Info: Shooter.S03E04.HDTV.x264-KILLERS[eztv]
View Torrent Info: Power.2014.S05E03.WEB.H264-DEFLATE[eztv]
View Torrent Info: Preacher.S03E04.HDTV.x264-SVA[eztv]
View Torrent Info: Sharp.Objects.S01E02.WEB.H264-DEFLATE[eztv]
View Torrent Info: Code.Black.S03E12.HDTV.x264-KILLERS[eztv]
View Torrent Info: Queen.of.the.South.S03E04.HDTV.x264-KILLERS[eztv]
View Torrent Info: SIX.S02E07.HDTV.x264-KILLERS[eztv]
View Torrent Info: Salvation.S02E04.HDTV.x264-SVA[eztv]
stuffalansimpsonsays.com > Categories > Movies torrents > Dubbed /Dual Audio torrents


Browse Movies torrents

Romeo Express (2018) 720p Hindi Dubbed WEBHD x264 AAC 900MB [MovCr] torrent



Download torrent: Download Romeo Express (2018) 720p Hindi Dubbed WEBHD x264 AAC 900MB [MovCr] torrent Magnet link Bookmark Torrent: Romeo Express (2018) 720p Hindi Dubbed WEBHD x264 AAC 900MB [MovCr] Romeo Express (2018) 720p Hindi Dubbed WEBHD x264 AAC 900MB [MovCr] torrent | if not working, try instead: Magnet Link
Info hash: BBE1E406CF58F1D6578DAAFA70271C412C0BD2FC
Category: Categories > Movies torrents > Dubbed /Dual Audio torrents
Trackers:
15    View all torrent trackers >
Health:
 seeds: 1 ,  leechers: 0 |  Update >
Total Size: 893.10 MB
Torrent status: Added by trusted uploader Added by trusted uploader Trusted Uploader Site Friend Superman Sun
Uploader: Trusted Uploader Site Friend Superman Sun
Torrent added: 2018-07-12 21:29:58
 

Download Romeo Express (2018) 720p Hindi Dubbed WEBHD x264 AAC 900MB [MovCr] torrent if not working, try downloading torrent using Download Romeo Express (2018) 720p Hindi Dubbed WEBHD x264 AAC 900MB [MovCr] via Magnet Link




Torrent Description

Visit Our Site www.movcr.com

Kathiruppor Pattiyal (2018) Tamil In Hindi Dubbed

http://www.imdb.com/title/tt8176308/



General
Unique ID                   : 224252811506369116930751362046941856394 (0xA8B5853E21E10F18C04931F45C76028A)
Complete name               : www.MovCr.com - Romeo Express (2018) 720p Hindi Dubbed WEBHD x264 AAC 900MB [MovCr].mkv
Format                      : Matroska
Format version              : Version 4 / Version 2
File size                   : 893 MiB
Duration                    : 1 h 45 min
Overall bit rate            : 1 181 kb/s
Movie name                  : www.MovCr.com
Encoded date                : UTC 2018-07-12 19:04:24
Writing application         : mkvmerge v23.0.0 ('The Bride Said No') 64-bit
Writing library             : libebml v1.3.6 + libmatroska v1.4.9

Video
ID                          : 1
Format                      : AVC
Format/Info                 : Advanced Video Codec
Format profile              : [email protected]
Format settings, CABAC      : Yes
Format settings, ReFrames   : 3 frames
Codec ID                    : V_MPEG4/ISO/AVC
Duration                    : 1 h 45 min
Bit rate                    : 1 053 kb/s
Width                       : 1 280 pixels
Height                      : 720 pixels
Display aspect ratio        : 16:9
Frame rate mode             : Constant
Frame rate                  : 24.000 FPS
Color space                 : YUV
Chroma subsampling          : 4:2:0
Bit depth                   : 8 bits
Scan type                   : Progressive
Bits/(Pixel*Frame)          : 0.048
Stream size                 : 796 MiB (89%)
Title                       : www.MovCr.com
Default                     : Yes
Forced                      : No
Color range                 : Limited
Color primaries             : BT.709
Transfer characteristics    : BT.709
Matrix coefficients         : BT.709

Audio
ID                          : 2
Format                      : AAC
Format/Info                 : Advanced Audio Codec
Format profile              : LC
Codec ID                    : A_AAC
Duration                    : 1 h 45 min
Bit rate                    : 126 kb/s
Channel(s)                  : 2 channels
Channel positions           : Front: L R
Sampling rate               : 44.1 kHz
Frame rate                  : 43.066 FPS (1024 spf)
Compression mode            : Lossy
Delay relative to video     : 85 ms
Stream size                 : 95.0 MiB (11%)
Title                       : www.MovCr.com
Language                    : Hindi
Default                     : Yes
Forced                      : No













#IcTv -> To avoid fakes, ALWAYS check that the torrent was added on stuffalansimpsonsays.com by IcTv

http://stuffalansimpsonsays.com/



Download Romeo Express (2018) 720p Hindi Dubbed WEBHD x264 AAC 900MB [MovCr] torrent


Comments (please add your comment)
No comments



Home - Browse Torrents - Upload Torrent - Stat - Forum - FAQ - Login
stuffalansimpsonsays.com is in compliance with copyrights
2006-2018 stuffalansimpsonsays.com