Episode 12 VOSTFR | Download | • Épisode 514: Sanji, le survivant de lenfer. Un duel où sa virilité est en jeu
stuffalansimpsonsays.com - The Largest Bittorent System Login   |    Register
Latest Articles
Most searched
Hot torrents
Movie Torrents
View Torrent Info: Overboard (2018) [720p] [YTS] [YIFY]
View Torrent Info: How It Ends (2018) [720p] [YTS] [YIFY]
View Torrent Info: Furious (2017) [720p] [YTS] [YIFY]
View Torrent Info: Siberia (2018) [720p] [YTS] [YIFY]
View Torrent Info: Battalion (2018) [720p] [YTS] [YIFY]
View Torrent Info: Relentless (2018) [720p] [YTS] [YIFY]
View Torrent Info: Sara's Notebook (2018) [720p] [YTS] [YIFY]
View Torrent Info: The Honey Killer (2018) [720p] [YTS] [YIFY]
View Torrent Info: 7 Splinters in Time (2018) [720p] [YTS] [YIFY]
View Torrent Info: The Devil's Doorway (2018) [720p] [YTS] [YIFY]
Hot torrents
TV Torrents
View Torrent Info: The.100.S05E10.HDTV.x264-SVA[eztv]
View Torrent Info: The.Originals.S05E10.HDTV.x264-SVA[eztv]
View Torrent Info: Shooter.S03E04.HDTV.x264-KILLERS[eztv]
View Torrent Info: Power.2014.S05E03.WEB.H264-DEFLATE[eztv]
View Torrent Info: Preacher.S03E04.HDTV.x264-SVA[eztv]
View Torrent Info: Sharp.Objects.S01E02.WEB.H264-DEFLATE[eztv]
View Torrent Info: Code.Black.S03E12.HDTV.x264-KILLERS[eztv]
View Torrent Info: Queen.of.the.South.S03E04.HDTV.x264-KILLERS[eztv]
View Torrent Info: SIX.S02E07.HDTV.x264-KILLERS[eztv]
View Torrent Info: Animal.Kingdom.US.S03E08.WEBRip.x264-TBS[eztv]
stuffalansimpsonsays.com > Categories > Movies torrents > Bollywood/Desi torrents


Browse Movies torrents

Zakhmi 2018 S01 x264 720p HD Hindi GOPISAHI torrent



Download torrent: Download Zakhmi 2018 S01 x264 720p HD  Hindi GOPISAHI torrent Magnet link Bookmark Torrent: Zakhmi 2018 S01 x264 720p HD  Hindi GOPISAHI Zakhmi 2018 S01 x264 720p HD Hindi GOPISAHI torrent | if not working, try instead: Magnet Link
Info hash: 328133DD326F805DB496D751131E03A4CF9138D1
Category: Categories > Movies torrents > Bollywood/Desi torrents
Trackers:
13    View all torrent trackers >
Health:
 seeds: 1 ,  leechers: 0 |  Update >
Total Size: 999.00 MB
Torrent status: Added by trusted uploader Added by trusted uploader Trusted Uploader Site Friend Superman Sun
Uploader: Trusted Uploader Site Friend Superman Sun
Torrent added: 2018-07-12 11:36:02
 

Download Zakhmi 2018 S01 x264 720p HD  Hindi GOPISAHI torrent if not working, try downloading torrent using Download Zakhmi 2018 S01 x264 720p HD  Hindi GOPISAHI via Magnet Link




Torrent Description

http://www.gopisahi.pw/

Format : Matroska
Format version : Version 4 / Version 2
File size : 999 MiB
Duration : 4 h 8 min
Overall bit rate : 563 kb/s
Movie name : Zakhmi 2018 S01 GOPISAHI


Video
Format : AVC
Format/Info : Advanced Video Codec
Codec ID : V_MPEG4/ISO/AVC
Duration : 4 h 8 min
Bit rate : 499 kb/s
Width : 1 280 pixels
Height : 412 pixels
Display aspect ratio : 2.35:1
Frame rate mode : Constant
Frame rate : 25.000 FPS
Color space : YUV
Chroma subsampling : 4:2:0
Bit depth : 8 bits
Scan type : Progressive
Bits/(Pixel*Frame) : 0.038
Stream size : 886 MiB (89%)
Title : GOPISAHI
Writing library : x264 core 155 r2901 7d0ff22

Audio
Format : AAC
Duration : 4 h 8 min
Bit rate : 61.5 kb/s
Channel(s) : 2 channels
Channel positions : Front: L R
Sampling rate : 48.0 kHz
Frame rate : 46.875 FPS (1024 SPF)
Compression mode : Lossy
Delay relative to video : -21 ms
Stream size : 109 MiB (11%)
Title : GOPISAHI
Language : Hindi




#PENDUDESI -> To avoid fakes, ALWAYS check that the torrent was added on stuffalansimpsonsays.com by PENDUDESI

http://stuffalansimpsonsays.com/



Download Zakhmi 2018 S01 x264 720p HD  Hindi GOPISAHI torrent


Comments (please add your comment)
No comments



Home - Browse Torrents - Upload Torrent - Stat - Forum - FAQ - Login
stuffalansimpsonsays.com is in compliance with copyrights
2006-2018 stuffalansimpsonsays.com