Highest Rated | Shane Diesels Dirty Little Babysitter 2 (New Sensations) NEW 2015 WEB-DL ... | 29.05.1816:32 Uhr VA - Ibiza Tech House Dance Sounds 2018 House320 kbit/s 0 / 0711 Hits VID P2P DDL 0 Kommentare
stuffalansimpsonsays.com - The Largest Bittorent System Login   |    Register
Latest Articles
Most searched
Hot torrents
Movie Torrents
View Torrent Info: Overboard (2018) [720p] [YTS] [YIFY]
View Torrent Info: How It Ends (2018) [720p] [YTS] [YIFY]
View Torrent Info: Furious (2017) [720p] [YTS] [YIFY]
View Torrent Info: Siberia (2018) [720p] [YTS] [YIFY]
View Torrent Info: Battalion (2018) [720p] [YTS] [YIFY]
View Torrent Info: Relentless (2018) [720p] [YTS] [YIFY]
View Torrent Info: Sara's Notebook (2018) [720p] [YTS] [YIFY]
View Torrent Info: The Honey Killer (2018) [720p] [YTS] [YIFY]
View Torrent Info: 7 Splinters in Time (2018) [720p] [YTS] [YIFY]
View Torrent Info: The Devil's Doorway (2018) [720p] [YTS] [YIFY]
Hot torrents
TV Torrents
View Torrent Info: The.100.S05E10.HDTV.x264-SVA[eztv]
View Torrent Info: The.Originals.S05E10.HDTV.x264-SVA[eztv]
View Torrent Info: Shooter.S03E04.HDTV.x264-KILLERS[eztv]
View Torrent Info: Power.2014.S05E03.WEB.H264-DEFLATE[eztv]
View Torrent Info: Preacher.S03E04.HDTV.x264-SVA[eztv]
View Torrent Info: Sharp.Objects.S01E02.WEB.H264-DEFLATE[eztv]
View Torrent Info: Code.Black.S03E12.HDTV.x264-KILLERS[eztv]
View Torrent Info: Queen.of.the.South.S03E04.HDTV.x264-KILLERS[eztv]
View Torrent Info: SIX.S02E07.HDTV.x264-KILLERS[eztv]
View Torrent Info: Animal.Kingdom.US.S03E08.WEBRip.x264-TBS[eztv]
stuffalansimpsonsays.com > Categories > Movies torrents > HD torrents


Browse Movies torrents

Daas Dev (2018) Hindi HDTVRip x264 AAC by Full4movies torrent



Download torrent: Download Daas Dev (2018) Hindi HDTVRip x264 AAC by Full4movies torrent Magnet link Bookmark Torrent: Daas Dev (2018) Hindi HDTVRip x264 AAC by Full4movies Daas Dev (2018) Hindi HDTVRip x264 AAC by Full4movies torrent | if not working, try instead: Magnet Link
Info hash: B0229341B373A1D9FFBF7BFF1239952AFC65A94C
Category: Categories > Movies torrents > HD torrents
Trackers:
15    View all torrent trackers >
Health:
 seeds: 0 ,  leechers: 0 |  Update >
Total Size: 701.90 MB
Torrent status: Added by trusted uploader Added by trusted uploader Trusted Uploader Site Friend Superman Sun
Uploader: Trusted Uploader Site Friend Superman Sun
Torrent added: 2018-07-12 09:19:26
 

Download Daas Dev (2018) Hindi HDTVRip x264 AAC by Full4movies torrent if not working, try downloading torrent using Download Daas Dev (2018) Hindi HDTVRip x264 AAC by Full4movies via Magnet Link




Torrent Description



General
Complete name : Daas Dev (2018) Hindi HDTVRip x264 AAC by Full4movies.mkv
Format : Matroska
Format version : Version 4 / Version 2
File size : 702 MiB
Duration : 2 h 11 min
Overall bit rate : 745 kb/s
Encoded date : UTC 2018-07-11 10:14:57
Writing application : mkvmerge v8.1.0 ('Psychedelic Postcard') 32bit
Writing library : libebml v1.3.1 + libmatroska v1.4.2

Video
ID : 1
Format : AVC
Format/Info : Advanced Video Codec
Format profile : [email protected]
Format settings, CABAC : Yes
Format settings, RefFrames : 4 frames
Codec ID : V_MPEG4/ISO/AVC
Duration : 2 h 11 min
Bit rate : 674 kb/s
Width : 720 pixels
Height : 304 pixels
Display aspect ratio : 2.35:1
Frame rate mode : Variable
Frame rate : 29.970 FPS
Color space : YUV
Chroma subsampling : 4:2:0
Bit depth : 8 bits
Scan type : Progressive
Bits/(Pixel*Frame) : 0.103
Stream size : 638 MiB (91%)
Writing library : x264 core 112
Language : English
Default : Yes
Forced : No
Color range : Limited
Color primaries : BT.709
Transfer characteristics : BT.709
Matrix coefficients : BT.709

Audio
ID : 2
Format : AAC
Format/Info : Advanced Audio Codec
Format profile : LC
Codec ID : A_AAC
Duration : 2 h 11 min
Bit rate : 64.2 kb/s
Channel(s) : 2 channels
Channel positions : Front: L R
Sampling rate : 48.0 kHz
Frame rate : 46.875 FPS (1024 SPF)
Compression mode : Lossy
Stream size : 60.5 MiB (9%)
Language : Hindi
Default : Yes
Forced : No

Screen Shoots



#shmasti -> To avoid fakes, ALWAYS check that the torrent was added on stuffalansimpsonsays.com by shmasti

http://stuffalansimpsonsays.com/



Download Daas Dev (2018) Hindi HDTVRip x264 AAC by Full4movies torrent


Comments (please add your comment)
No comments



Home - Browse Torrents - Upload Torrent - Stat - Forum - FAQ - Login
stuffalansimpsonsays.com is in compliance with copyrights
2006-2018 stuffalansimpsonsays.com