Nicky, Ricky, Dicky Dawn | M.i.a. A Greater ... | Wanderlust 2012 1080p BluRay x264-BLOW
stuffalansimpsonsays.com - The Largest Bittorent System Login   |    Register
Latest Articles
Most searched
Hot torrents
Movie Torrents
View Torrent Info: Overboard (2018) [720p] [YTS] [YIFY]
View Torrent Info: How It Ends (2018) [720p] [YTS] [YIFY]
View Torrent Info: Furious (2017) [720p] [YTS] [YIFY]
View Torrent Info: Siberia (2018) [720p] [YTS] [YIFY]
View Torrent Info: Battalion (2018) [720p] [YTS] [YIFY]
View Torrent Info: Relentless (2018) [720p] [YTS] [YIFY]
View Torrent Info: Sara's Notebook (2018) [720p] [YTS] [YIFY]
View Torrent Info: The Devil's Doorway (2018) [720p] [YTS] [YIFY]
View Torrent Info: The Honey Killer (2018) [720p] [YTS] [YIFY]
View Torrent Info: 7 Splinters in Time (2018) [720p] [YTS] [YIFY]
Hot torrents
TV Torrents
View Torrent Info: The.Originals.S05E10.HDTV.x264-SVA[eztv]
View Torrent Info: The.100.S05E10.HDTV.x264-SVA[eztv]
View Torrent Info: Shooter.S03E04.HDTV.x264-KILLERS[eztv]
View Torrent Info: Power.2014.S05E03.WEB.H264-DEFLATE[eztv]
View Torrent Info: Preacher.S03E04.HDTV.x264-SVA[eztv]
View Torrent Info: Sharp.Objects.S01E02.WEB.H264-DEFLATE[eztv]
View Torrent Info: Code.Black.S03E12.HDTV.x264-KILLERS[eztv]
View Torrent Info: Queen.of.the.South.S03E04.HDTV.x264-KILLERS[eztv]
View Torrent Info: SIX.S02E07.HDTV.x264-KILLERS[eztv]
View Torrent Info: Salvation.S02E04.HDTV.x264-SVA[eztv]
stuffalansimpsonsays.com > Categories > Movies torrents > Dubbed /Dual Audio torrents


Browse Movies torrents

Thor (2011) 1080p BluRay Hindi DD 5.1Ch - Eng DD 5.1Ch ~ MANN KT torrent



Download torrent: Download Thor (2011) 1080p BluRay Hindi DD 5.1Ch - Eng DD 5.1Ch ~ MANN KT torrent Magnet link Bookmark Torrent: Thor (2011) 1080p BluRay Hindi DD 5.1Ch - Eng DD 5.1Ch ~ MANN KT Thor (2011) 1080p BluRay Hindi DD 5.1Ch - Eng DD 5.1Ch ~ MANN KT torrent | if not working, try instead: Magnet Link
Info hash: 0DAF7C4C232D6D64329958A8F92AF549D6A5DA38
Category: Categories > Movies torrents > Dubbed /Dual Audio torrents
Trackers:
14    View all torrent trackers >
Health:
 seeds: 5 ,  leechers: 0 |  Update >
Torrent language:  
Total Size: 7.20 GB
Torrent status: Added by trusted uploader Added by trusted uploader Trusted Uploader Site Friend Superman Sun
Uploader: Trusted Uploader Site Friend Superman Sun
Torrent added: 2018-07-11 09:55:57
 

Download Thor (2011) 1080p BluRay Hindi DD 5.1Ch - Eng DD 5.1Ch ~ MANN KT torrent if not working, try downloading torrent using Download Thor (2011) 1080p BluRay Hindi DD 5.1Ch - Eng DD 5.1Ch ~ MANN KT via Magnet Link




Torrent Description

Thor (2011) 1080p BluRay Hindi DD 5.1Ch - Eng DD 5.1Ch ~ MANN KT



General

Format : Matroska
Format version : Version 4 / Version 2
File size : 7.15 GiB
Duration : 1 h 54 min
Overall bit rate : 8 916 kb/s
Movie name : MANN KT
Encoded date : UTC 2018-07-10 17:47:17
Writing application : mkvmerge v24.0.0 ('Beyond The Pale') 64-bit
Writing library : libebml v1.3.6 + libmatroska v1.4.9

Video
ID : 1
Format : AVC
Format/Info : Advanced Video Codec
Format profile : [email protected]
Format settings, CABAC : Yes
Format settings, ReFrames : 5 frames
Codec ID : V_MPEG4/ISO/AVC
Duration : 1 h 54 min
Bit rate : 8 020 kb/s
Width : 1 920 pixels
Height : 816 pixels
Display aspect ratio : 2.35:1
Frame rate mode : Constant
Frame rate : 23.976 (24000/1001) FPS
Color space : YUV
Chroma subsampling : 4:2:0
Bit depth : 8 bits
Scan type : Progressive
Bits/(Pixel*Frame) : 0.214
Stream size : 6.43 GiB (90%)
Title : MANN KT
Language : English
Default : No
Forced : No

Audio #1
ID : 2
Format : AC-3
Format/Info : Audio Coding 3
Mode extension : CM (complete main)
Format settings, Endianness : Big
Codec ID : A_AC3
Duration : 1 h 54 min
Bit rate mode : Constant
Bit rate : 448 kb/s
Channel(s) : 6 channels
Channel positions : Front: L C R, Side: L R, LFE
Sampling rate : 48.0 kHz
Frame rate : 31.250 FPS (1536 spf)
Bit depth : 16 bits
Compression mode : Lossy
Stream size : 368 MiB (5%)
Title : MANN KT
Language : Hindi
Default : Yes
Forced : No

Audio #2
ID : 3
Format : AC-3
Format/Info : Audio Coding 3
Mode extension : CM (complete main)
Format settings, Endianness : Big
Codec ID : A_AC3
Duration : 1 h 54 min
Bit rate mode : Constant
Bit rate : 448 kb/s
Channel(s) : 6 channels
Channel positions : Front: L C R, Side: L R, LFE
Sampling rate : 48.0 kHz
Frame rate : 31.250 FPS (1536 spf)
Bit depth : 16 bits
Compression mode : Lossy
Stream size : 368 MiB (5%)
Title : MANN KT
Language : English
Default : No
Forced : No

Text
ID : 4
Format : UTF-8
Codec ID : S_TEXT/UTF8
Codec ID/Info : UTF-8 Plain Text
Duration : 1 h 53 min
Bit rate : 39 b/s
Count of elements : 1091
Stream size : 33.0 KiB (0%)
Title : MANN KT
Language : English
Default : No
Forced : No

SCREENSHOTS



ENJOY



#THEGABRU -> To avoid fakes, ALWAYS check that the torrent was added on stuffalansimpsonsays.com by THEGABRU

http://stuffalansimpsonsays.com/



Download Thor (2011) 1080p BluRay Hindi DD 5.1Ch - Eng DD 5.1Ch ~ MANN KT torrent


Comments (please add your comment)
No comments



Home - Browse Torrents - Upload Torrent - Stat - Forum - FAQ - Login
stuffalansimpsonsays.com is in compliance with copyrights
2006-2018 stuffalansimpsonsays.com