Watch Movie | #ciekawostki | frugoneto_33
stuffalansimpsonsays.com - The Largest Bittorent System Login   |    Register
Latest Articles
Most searched
Hot torrents
Movie Torrents
View Torrent Info: Overboard (2018) [720p] [YTS] [YIFY]
View Torrent Info: How It Ends (2018) [720p] [YTS] [YIFY]
View Torrent Info: Furious (2017) [720p] [YTS] [YIFY]
View Torrent Info: Siberia (2018) [720p] [YTS] [YIFY]
View Torrent Info: Battalion (2018) [720p] [YTS] [YIFY]
View Torrent Info: Relentless (2018) [720p] [YTS] [YIFY]
View Torrent Info: Sara's Notebook (2018) [720p] [YTS] [YIFY]
View Torrent Info: The Devil's Doorway (2018) [720p] [YTS] [YIFY]
View Torrent Info: The Honey Killer (2018) [720p] [YTS] [YIFY]
View Torrent Info: 7 Splinters in Time (2018) [720p] [YTS] [YIFY]
Hot torrents
TV Torrents
View Torrent Info: The.Originals.S05E10.HDTV.x264-SVA[eztv]
View Torrent Info: The.100.S05E10.HDTV.x264-SVA[eztv]
View Torrent Info: Shooter.S03E04.HDTV.x264-KILLERS[eztv]
View Torrent Info: Power.2014.S05E03.WEB.H264-DEFLATE[eztv]
View Torrent Info: Preacher.S03E04.HDTV.x264-SVA[eztv]
View Torrent Info: Sharp.Objects.S01E02.WEB.H264-DEFLATE[eztv]
View Torrent Info: Code.Black.S03E12.HDTV.x264-KILLERS[eztv]
View Torrent Info: Queen.of.the.South.S03E04.HDTV.x264-KILLERS[eztv]
View Torrent Info: SIX.S02E07.HDTV.x264-KILLERS[eztv]
View Torrent Info: Salvation.S02E04.HDTV.x264-SVA[eztv]
stuffalansimpsonsays.com > Categories > Movies torrents > Dubbed /Dual Audio torrents


Browse Movies torrents

Game of Thrones S01 E09 720p BluRay x264 Dual Audio [Hindi DD 5.1 - English 2.0] Esub [MW] torrent



Download torrent: Download Game of Thrones S01 E09 720p BluRay x264 Dual Audio [Hindi DD 5.1 - English 2.0] Esub [MW] torrent Magnet link Bookmark Torrent: Game of Thrones S01 E09 720p BluRay x264 Dual Audio [Hindi DD 5.1 - English 2.0] Esub [MW] Game of Thrones S01 E09 720p BluRay x264 Dual Audio [Hindi DD 5.1 - English 2.0] Esub [MW] torrent | if not working, try instead: Magnet Link
Info hash: B2AF40486F0154BAC91FD994A4DBD125D0C8B405
Category: Categories > Movies torrents > Dubbed /Dual Audio torrents
Trackers:
13    View all torrent trackers >
Health:
 seeds: 0 ,  leechers: 0 |  Update >
Total Size: 470.00 MB
Torrent status: Added by trusted uploader Added by trusted uploader Trusted Uploader Site Friend Superman Sun
Uploader: Trusted Uploader Site Friend Superman Sun
Torrent added: 2018-07-10 13:50:44
 

Download Game of Thrones S01 E09 720p BluRay x264 Dual Audio [Hindi DD 5.1 - English 2.0] Esub [MW] torrent if not working, try downloading torrent using Download Game of Thrones S01 E09 720p BluRay x264 Dual Audio [Hindi DD 5.1 - English 2.0] Esub [MW] via Magnet Link




Torrent Description





General
Format : Matroska
Format version : Version 4 / Version 2
File size : 470 MiB
Duration : 56 min 16 s
Overall bit rate : 1 168 kb/s

Video
ID : 1
Format : AVC
Format/Info : Advanced Video Codec
Format profile : [email protected]
Format settings : CABAC / 5 Ref Frames
Format settings, CABAC : Yes
Format settings, RefFrames : 5 frames
Codec ID : V_MPEG4/ISO/AVC
Duration : 56 min 16 s
Bit rate : 923 kb/s
Width : 1 280 pixels
Height : 720 pixels
Display aspect ratio : 16:9
Frame rate mode : Constant
Frame rate : 23.976 (24000/1001) FPS
Color space : YUV
Chroma subsampling : 4:2:0
Bit depth : 8 bits
Scan type : Progressive
Bits/(Pixel*Frame) : 0.042
Stream size : 372 MiB (79%)
Writing library : x264 core 138 r2358 9e941d1
Default : Yes
Forced : No

Audio #1
ID : 2
Format : AC-3
Format/Info : Audio Coding 3
Codec ID : A_AC3
Duration : 56 min 16 s
Bit rate mode : Constant
Bit rate : 192 kb/s
Channel(s) : 6 channels
Channel positions : Front: L C R, Side: L R, LFE
Sampling rate : 48.0 kHz
Frame rate : 31.250 FPS (1536 SPF)
Bit depth : 16 bits
Compression mode : Lossy
Stream size : 77.3 MiB (16%)
Language : Hindi
Service kind : Complete Main
Default : Yes
Forced : No

Audio #2
ID : 3
Format : AAC
Format/Info : Advanced Audio Codec
Format profile : HE-AAC / LC
Format settings : Explicit
Codec ID : A_AAC-2
Duration : 56 min 16 s
Bit rate : 48.0 kb/s
Channel(s) : 2 channels
Channel positions : Front: L R
Sampling rate : 48.0 kHz / 24.0 kHz
Frame rate : 23.438 FPS (1024 SPF)
Compression mode : Lossy
Delay relative to video : 31 ms
Stream size : 19.3 MiB (4%)
Language : English
Default : No
Forced : No

Text #1
ID : 4
Format : UTF-8
Codec ID : S_TEXT/UTF8
Codec ID/Info : UTF-8 Plain Text
Duration : 52 min 21 s
Bit rate : 60 b/s
Count of elements : 679
Stream size : 23.0 KiB (0%)
Language : English
Default : No
Forced : No

Text #2
ID : 5
Format : UTF-8
Codec ID : S_TEXT/UTF8
Codec ID/Info : UTF-8 Plain Text
Duration : 53 min 6 s
Bit rate : 62 b/s
Count of elements : 736
Stream size : 24.3 KiB (0%)
Title : SDH
Language : English
Default : No
Forced : No

Menu
00:00:00.000 : en:00:00:00.000
00:00:06.006 : en:00:00:06.006
00:01:48.108 : en:00:01:48.108
00:11:06.457 : en:00:11:06.457
00:17:23.793 : en:00:17:23.793
00:27:06.333 : en:00:27:06.333
00:34:52.924 : en:00:34:52.924
00:44:17.655 : en:00:44:17.655
00:55:11.725 : en:00:55:11.725



Click To Enlarge Image







#moviezworldz -> To avoid fakes, ALWAYS check that the torrent was added on stuffalansimpsonsays.com by moviezworldz

http://stuffalansimpsonsays.com/



Download Game of Thrones S01 E09 720p BluRay x264 Dual Audio [Hindi DD 5.1 - English 2.0] Esub [MW] torrent


Comments (please add your comment)
No comments



Home - Browse Torrents - Upload Torrent - Stat - Forum - FAQ - Login
stuffalansimpsonsays.com is in compliance with copyrights
2006-2018 stuffalansimpsonsays.com